[Login] or [Signup]
Login
Username:
Password:
[Signup]
[Recover Account]


Poll


You must be logged in to view polls



Torrent Details For "Tom Clancys Jack Ryan S01 Complete 720p WEB-DL x264 [4.3GB] [MP4] [Season 1 Full]"

Tom Clancys Jack Ryan S01 Complete 720p WEB-DL x264 [4.3GB] [MP4] [Season 1 Full]

Download this torrent | Magnet Download
Health:
Seeds: 0
Leechers: 0
Completed:
Last Checked: 14-10-2018 14:59:41
External Torrent
Update Stats
Download Magnet


Poster


iMDB
Original Title: Jack Ryan
Title: Tom Clancy's Jack Ryan
Year: 2018
Runtime: 60 minutes
Language: English
All Genres: Action, Drama, Thriller
Director: Patricia Riggen
Daniel Sackheim
Dennie Gordon
Carlton Cuse
Morten Tyldum
Writing By: Tom Clancy,Carlton Cuse,Graham Roland,Daria Polatin,Patrick Aison,Nazrin Choudhury,Nolan Dunbar,Annie Jacobsen,Stephen Kronish,
Produced By: José Luis Escolar,Patrick Aison,Michael Bay,Nazrin Choudhury,Carlton Cuse,Kiegan Downs,David Ellison,Andrew Form,Brad Fuller,Dana Goldberg,Annie Jacobsen,John Krasinski,Mace Neufeld,Robert F. Phillips,Graham Roland,Marcy Ross,Daniel Sackheim,Allyson Seeger,Lindsey Springer,Morten Tyldum,Daria Polatin,Ahmed Abounouom,Xavier Roy,Ra'uf Glasgow,Jonathan Starch,Tom Clancy,Karim Abouobayd,
Music: Ramin Djawadi
Cast:
John Krasinski as Jack Ryan 16 episodes, 2018-2019
Wendell Pierce as James Greer 16 episodes, 2018-2019
John Hoogenakker as Matice 12 episodes, 2018-2019
Abbie Cornish as Cathy Mueller 8 episodes, 2018
Ali Suliman as Suleiman 8 episodes, 2018
Dina Shihabi as Hanin 8 episodes, 2018
Haaz Sleiman as Ali 8 episodes, 2018
Karim Zein as Samir 8 episodes, 2018
Emmanuelle Lussier Martinez as Teresa 8 episodes, 2018
Jovan Adepo as Marcus 8 episodes, 2019
Trailers:
Premieres Aug. 31
Official Trailer
Super Bowl Spot
Teaser Trailer
"Tom Clancy's Jack Ryan" Teaser Trailer
Teaser: "The Reveal"
Tom Clancy's Jack Ryan "Hobbies" Teaser
Tom Clancy's Jack Ryan "10 Dollar Bill" Teaser


Watch-Free-HD     Download

Details
Name:Tom Clancys Jack Ryan S01 Complete 720p WEB-DL x264 [4.3GB] [MP4] [Season 1 Full]
Description:
 




 




Video
ID : 1
Format : AVC
Format/Info : Advanced Video Codec
Format profile : [email protected]
Format settings : CABAC / 4 Ref Frames
Format settings, CABAC : Yes
Format settings, RefFrames : 4 frames
Codec ID : V_MPEG4/ISO/AVC
Duration : 42 min 56 s
Bit rate : 7 394 kb/s
Width : 1 920 pixels
Height : 1 080 pixels
Display aspect ratio : 16:9
Frame rate mode : Constant
Frame rate : 23.976 (24000/1001) FPS
Color space : YUV
Chroma subsampling : 4:2:0
Bit depth : 8 bits
Scan type : Progressive
Bits/(Pixel*Frame) : 0.149
Stream size : 2.22 GiB (90%)
Default : Yes
Forced : No
Color range : Limited
Color primaries : BT.709
Transfer characteristics : BT.709
Matrix coefficients : BT.709

Audio
ID : 2
Format : E-AC-3
Format/Info : Enhanced Audio Coding 3
Format settings, Endianness : Big
Codec ID : A_EAC3
Duration : 42 min 56 s
Bit rate mode : Constant
Bit rate : 640 kb/s
Channel(s) : 6 channels
Channel positions : Front: L C R, Side: L R, LFE
Sampling rate : 48.0 kHz
Frame rate : 187.500 FPS (256 SPF)
Bit depth : 32 bits
Compression mode : Lossy
Stream size : 197 MiB (8%)
Title : English
Language : English
Service kind : Complete Main
Default : Yes
Forced : No

Text
ID : 3
Format : UTF-8
Codec ID : S_TEXT/UTF8
Codec ID/Info : UTF-8 Plain Text
Title : English [CC]
Language : English (United States)
Default : No
Forced : No




 





 

 

 

 

 

 

 

 

 




 


 


 

PLEASE KEEP SEEDING
PLEASE KEEP SEEDING
PLEASE KEEP SEEDING
PLEASE KEEP SEEDING
PLEASE KEEP SEEDING
PLEASE KEEP SEEDING :love  :love  :love  :love  :love  :love  :love  :love  :love  :love  :love  :love  :love  :love  :love  :love  :love  :love  :love  :love  :love  :love  :love  :love
Category:TV > WEB-HD
Lang:English  English
Total Size:4.30 GB
Info Hash:c1d337a10d4c7f57b5e4f7efd2bbc52a94d4472e
Added By:Unknown
Date Added:14-10-2018 14:59:41
Views:9
Hits:0

Download Torrent

Ratings:Not Yet Rated (Log in to rate it)

  


Tracker:
udp://tracker.coppersurfer.tk:80/announce

This Torrent also has backup trackers
URLSeedersLeechersCompleted
http://share.camoe.cn:8080/announce000
http://open.acgnxtracker.com:443/announce000
http://tracker.tfile.co:80/announce000
http://retracker.spb.ru:80/announce000
http://open.acgnxtracker.com/announce000
http://bt.acg.gg:1578/announce000
http://tracker3.itzmx.com:8080/announce000


File List: 


Comments

No comments still posted

Powered by 10 Hamsters v2-svn -|- Page Generated In 3.637990 secs.
-|- RSS FEED
Theme By: Nikkbu
Sitemap