[Login] or [Signup]
Login
Username:
Password:
[Signup]
[Recover Account]


Poll


You must be logged in to view polls



Torrent Details For " Tumi Je Amar (2018) - Zee Bangla Cinema - HD Rip[x264 - AAC3(5.1Ch)] - 850 MB"

Tumi Je Amar (2018) - Zee Bangla Cinema - HD Rip[x264 - AAC3(5.1Ch)] - 850 MB

Download this torrent | Magnet Download
Health:
Seeds: 15
Leechers: 8
Completed: 22 
Last Checked: 08-11-2018 16:53:22
External Torrent
Update Stats
Download Magnet


Poster


Watch-Free-HD     Download

Details
Name: Tumi Je Amar (2018) - Zee Bangla Cinema - HD Rip[x264 - AAC3(5.1Ch)] - 850 MB
Description:
   Tumi Je Amar (2018) - Zee Bangla Cinema -
HD Rip[x264 - AAC3(5.1Ch)] - 850 MB  
 





General
Format                                   : Matroska
Format version                           : Version 4
File size                                : 850 MiB
Duration                                 : 2 h 14 min

Video
ID                                       : 1
Format                                   : AVC
Format/Info                              : Advanced Video Codec
Format profile                           : [email protected]
Format settings                          : CABAC / 4 Ref Frames
Format settings, CABAC                   : Yes
Format settings, RefFrames               : 4 frames
Codec ID                                 : V_MPEG4/ISO/AVC
Duration                                 : 2 h 14 min
Bit rate                                 : 757 kb/s
Width                                    : 720 pixels
Height                                   : 360 pixels
Display aspect ratio                     : 2.000
Frame rate mode                          : Constant
Frame rate                               : 25.000 FPS
Color space                              : YUV
Chroma subsampling                       : 4:2:0
Bit depth                                : 8 bits
Scan type                                : Progressive
Bits/(Pixel*Frame)                       : 0.117
Stream size                              : 726 MiB (85%)

Audio
ID                                       : 2
Format                                   : AAC LC SBR
Commercial name                          : HE-AAC
Format settings                          : Explicit
Codec ID                                 : A_AAC-2
Duration                                 : 2 h 14 min
Bit rate                                 : 128 kb/s
Channel(s)                               : 6 channels
Channel layout                           : C L R Ls Rs LFE
Sampling rate                            : 48.0 kHz
Stream size                              : 123 MiB (14%)


 Thumbnail  


Category:Movies > Bengali
Lang:Bengali  Bengali
Total Size:850.32 MB
Info Hash:5f6b4959ea5d01ee0e5042b070695909431a6a36
Added By:CyberTron
Date Added:08-11-2018 16:52:02
Views:8
Hits:2

Download Torrent

Ratings:Not Yet Rated (Log in to rate it)

  


Tracker:
udp://tracker.trackerfix.com:80/announce


File List: 


Comments

No comments still posted

Powered by 10 Hamsters v2-svn -|- Page Generated In 0.335481 secs.
-|- RSS FEED
Theme By: Nikkbu
Sitemap